Earth's Natural Wonders S02E01 Surviving the Extreme (720p HD, so...

  • Category TV
  • Type HD
  • Language English
  • Total size 1,001.9 MB
  • Uploaded By ElsonRoa
  • Downloads 46
  • Last checked 6 hours ago
  • Date uploaded 1 month ago
  • Seeders 3
  • Leechers 5

Infohash : BBEC5EB0E72C61BE5325FE6C9B8C7715E344A274

Earth's Natural Wonders S02E01 Surviving the Extreme (720p HD, soft Eng subs)

Earth's Natural Wonders are parts of the natural world that nature has carved on such a scale, that they beggar belief - vast mountain ranges, impenetrable rainforests and dazzling tropical islands. Places where nature is visible at its most primal, most powerful, and most extraordinarily beautiful. Survival for human beings can be an incredible challenge.

The Natural Wonders are epic in scale: often rugged, possessing an awe-inspiring beauty. But the factors that create these stunning landscapes, can also present enormous challenges for the people who call them home. The extremes of nature encountered in many of Earth's natural wonders, can threaten human survival, or make human lives extraordinarily demanding. Yet human beings have devised remarkable ways to survive and even thrive in many of these places. Now these Natural Wonders are undergo all sorts of changes, and human survival techniques must also evolve

In the high Himalaya, yak-herder Thokmay Lowa and his small group steer his herd through one of the region's extreme mountain passes. For several months of the year, these herders live isolated lives away from their families, before returning in spring to the summer pastures. Their journey is fraught with hazards, as the terrain they must cross is highly treacherous. With baby yaks being born later than usual this year, some are only a day old when they must tackle the pass.

In the Canadian Arctic, traditional Inuit communities still forage for much of their food. 63-year-old Minnie Nappaaluk and her granddaughter Eva embark on one of the most hazardous expeditions for food - the mussel harvest. Winters here are so extreme the surface of the sea freezes, and when the spring tides go out, the sea ice is suspended above the seabed. Just as Inuit women have done for centuries, Minnie and Eva cut a hole through the sea ice and venture below this shifting, dangerous ice-layer to collect their bounty.

Some Natural Wonders are threatened as never before - nowhere more so than the Brazilian Amazon. In the Mato Grosso, as a result of deforestation, the region's microclimate has changed. Now fires rage out of control in the dry season. Not only do these destroy wild habitats - they also threaten the very existence of the indigenous peoples still living traditional lives in the rainforest. Now, one project aims to tackle these blazes by teaching indigenous peoples how to effectively fight the fires. It's a daunting and dangerous task, but the continuance of their traditional way of life depends upon it.

In the blistering Australian Outback, cattle ranching requires a lot of space. The only way to efficiently round up the herds on these vast farms is through the use of helicopter cowboys like Chris Weyand. It's a dangerous job - he must fly low and slowly over difficult terrain, and every year some pilots are killed. But thanks to the efforts of people like Chris, farming on this scale in the Outback is now possible.

Deep in the Siberian interior, survival is tough. But climate change is opening up a new niche for the human inhabitants of this region - mammoth tusk collection. The tusks have been locked in the Siberian Permafrost for thousands of years, but as the climate changes and the permafrost starts to melt more each summer, it is giving up this unexpected bounty. These tusks are made of ivory, and can sell for thousands of dollars. It is a controversial activity - conservationists argue that it encourages the ivory trade. But for now at least this is a legal pursuit.

(with soft subtitles)
First broadcast: 14 February 2018
Duration: 1 hour

Media info:-
Format : MPEG-4
Format profile : Base Media
Codec ID : isom (isom/iso2/avc1/mp41)
File size : 1 001 MiB
Duration : 57mn 58s
Overall bit rate mode : Variable
Overall bit rate : 2 414 Kbps
Writing application : Lavf57.25.100

ID : 1
Format : AVC
Format/Info : Advanced Video Codec
Format profile : [email protected]
Format settings, CABAC : Yes
Format settings, ReFrames : 2 frames
Codec ID : avc1
Codec ID/Info : Advanced Video Coding
Duration : 57mn 58s
Bit rate mode : Variable
Bit rate : 2 315 Kbps
Maximum bit rate : 3 500 Kbps
Width : 1 280 pixels
Height : 720 pixels
Display aspect ratio : 16:9
Frame rate mode : Constant
Frame rate : 25.000 fps
Color space : YUV
Chroma subsampling : 4:2:0
Bit depth : 8 bits
Scan type : Progressive
Bits/(Pixel*Frame) : 0.100
Stream size : 960 MiB (96%)

ID : 2
Format : AAC
Format/Info : Advanced Audio Codec
Format profile : LC
Codec ID : 40
Duration : 57mn 58s
Bit rate mode : Constant
Bit rate : 93.4 Kbps
Channel(s) : 2 channels
Channel positions : Front: L R
Sampling rate : 48.0 KHz
Frame rate : 46.875 fps (1024 spf)
Compression mode : Lossy
Stream size : 38.7 MiB (4%)


Earth's Natural Wonders S02E01 Surviving the Extreme
  • Earth's Natural Wonders S02E01 Surviving the Extreme.mp4 (1,001.0 MB)
  • Earth's Natural Wonders S02E01 Surviving the Extreme.jpg (858.2 KB)
  • About this torrent.txt (4.7 KB)
  • Earth's Natural Wonders S02E01 Surviving the (65.5 KB)
  • If this torrent is dead.txt (0.1 KB)
  • Torrent Downloaded From (0.0 KB)
  • Torrent Downloaded From - Kickasstorrents.txt (0.1 KB)
  • Torrent_downloaded_from_Demonoid_-_www.demonoid.pw_.txt (0.1 KB)

There are currently no comments. Feel free to leave one :)


  • udp://