Chris Rock Tamborine 2018 Movies 720p HDRip x264 5.1 MSubs with S...

  • Category Movies
  • Type HD
  • Language English
  • Total size 969.8 MB
  • Uploaded By nehalpuja
  • Downloads 39
  • Last checked 1 week ago
  • Date uploaded 1 week ago
  • Seeders 18
  • Leechers 8

Chris Rock: Tamborine

Comedy

Chris Rock takes the stage for his first comedy special in 10 years, filled with searing observations on fatherhood, infidelity, and American politics. Directed by Bo Burnham and filmed at New York’s Brooklyn Academy of Music.

Infohash : E30DB74A41724120AACE6DF4E9F9D5FE5F943AB1

Chris Rock Tamborine 2018 Movies 720p HDRip x264 5.1 MSubs with Sample ☻rDX☻
===============================================================================================

SCREEN SHOTS:



or

http://postimage.co.nr/2018/2/calling/1.html

File size : 960 MiB
Duration : 1 h 4 min
Overall bit rate mode : Variable
Overall bit rate : 2 067 kb/s
Movie name : Chris Rock Tamborine 2018 Movies 720p HDRip x264 5.1 MSubs ☻rDX☻

Video
ID : 2
Format : AVC
Format/Info : Advanced Video Codec
Format profile : [email protected]
Format settings, CABAC : Yes
Format settings, ReFrames : 3 frames
Codec ID : V_MPEG4/ISO/AVC
Duration : 1 h 4 min
Bit rate mode : Variable
Bit rate : 1 690 kb/s
Maximum bit rate : 2 535 kb/s
Width : 1 280 pixels
Height : 720 pixels
Display aspect ratio : 16:9
Frame rate mode : Constant
Frame rate : 23.976 (24000/1001) FPS
Color space : YUV
Chroma subsampling : 4:2:0
Bit depth : 8 bits
Scan type : Progressive
Bits/(Pixel*Frame) : 0.076
Stream size : 763 MiB (79%)
Title : ☻rDX☻
Writing library : x264

Audio
ID : 1
Format : AC-3
Format/Info : Audio Coding 3
Mode extension : CM (complete main)
Format settings, Endianness : Big
Codec ID : A_AC3
Duration : 1 h 4 min
Bit rate mode : Constant
Bit rate : 384 kb/s
Channel(s) : 6 channels
Channel positions : Front: L C R, Side: L R, LFE
Sampling rate : 48.0 kHz
Frame rate : 31.250 FPS (1536 spf)
Bit depth : 16 bits
Compression mode : Lossy
Stream size : 178 MiB (19%)
Title : ☻rDX☻
Language : English
Default : Yes
Forced : No

Text #1
ID : 3
Format : UTF-8
Codec ID : S_TEXT/UTF8
Codec ID/Info : UTF-8 Plain Text
Title : ☻rDX☻
Language : English
Default : Yes
Forced : No

Text #2
ID : 4
Format : UTF-8
Codec ID : S_TEXT/UTF8
Codec ID/Info : UTF-8 Plain Text
Title : ☻rDX☻
Language : Dutch
Default : No
Forced : No

Text #3
ID : 5
Format : UTF-8
Codec ID : S_TEXT/UTF8
Codec ID/Info : UTF-8 Plain Text
Title : ☻rDX☻
Language : Spanish
Default : No
Forced : No

Text #4
ID : 6
Format : UTF-8
Codec ID : S_TEXT/UTF8
Codec ID/Info : UTF-8 Plain Text
Title : ☻rDX☻
Language : French
Default : No
Forced : No

Text #5
ID : 7
Format : UTF-8
Codec ID : S_TEXT/UTF8
Codec ID/Info : UTF-8 Plain Text
Title : ☻rDX☻
Language : German
Default : No
Forced : No



IMDB : na

Files:

Chris Rock Tamborine 2018 Movies 720p HDRip x264 5.1 MSubs with Sample ☻rDX☻
  • Sample ~ Chris Rock Tamborine 2018 Movies 720p HDRip x264 5.1 MSubs ☻rDX☻.mkv (9.6 MB)
  • Chris Rock Tamborine 2018 Movies 720p HDRip x264 5.1 MSubs ☻rDX☻.mkv (960.2 MB)

There are currently no comments. Feel free to leave one :)

Code:

  • udp://tracker.coppersurfer.tk:6969/announce
  • udp://tracker.openbittorrent.com:80/announce
  • udp://glotorrents.pw:6969/announce
  • udp://tracker.publicbt.com:80/announce
  • http://retracker.krs-ix.ru/announce
  • udp://tracker.pomf.se:80/announce
  • udp://explodie.org:6969/announce
  • http://mgtracker.org:2710/announce
  • http://tracker.aletorrenty.pl:2710/announce
  • http://tracker.btcake.com/announce
  • udp://tracker.openbittorrent.com:80/announce
  • udp://tracker.leechers-paradise.org:6969/announce
  • udp://coppersurfer.tk:6969/announce