Lego DC Comics Super Heroes The Flash 2018 720p WEB-DL DD 5.1 x26...

  • Category Movies
  • Type HD
  • Language English
  • Total size 726.8 MB
  • Uploaded By moviezworldz
  • Downloads 232
  • Last checked 1 week ago
  • Date uploaded 1 week ago
  • Seeders 32
  • Leechers 12

Infohash : 5EAA9370C01441108D00F83D048F78DCB818315D




General
Format : Matroska
Format version : Version 4 / Version 2
File size : 727 MiB
Duration : 1 h 18 min
Overall bit rate : 1 296 kb/s

Video
ID : 1
Format : AVC
Format/Info : Advanced Video Codec
Format profile : [email protected]
Format settings : CABAC / 4 Ref Frames
Format settings, CABAC : Yes
Format settings, ReFrames : 4 frames
Codec ID : V_MPEG4/ISO/AVC
Duration : 1 h 18 min
Bit rate : 1 100 kb/s
Width : 1 280 pixels
Height : 718 pixels
Display aspect ratio : 16:9
Frame rate mode : Constant
Frame rate : 23.976 (24000/1001) FPS
Color space : YUV
Chroma subsampling : 4:2:0
Bit depth : 8 bits
Scan type : Progressive
Bits/(Pixel*Frame) : 0.050
Stream size : 618 MiB (85%)
Writing library : x264 core 148 r2708 86b7198
Default : Yes
Forced : No

Audio
ID : 2
Format : AC-3
Format/Info : Audio Coding 3
Codec ID : A_AC3
Duration : 1 h 18 min
Bit rate mode : Constant
Bit rate : 192 kb/s
Channel(s) : 6 channels
Channel positions : Front: L C R, Side: L R, LFE
Sampling rate : 48.0 kHz
Frame rate : 31.250 FPS (1536 SPF)
Bit depth : 16 bits
Compression mode : Lossy
Stream size : 108 MiB (15%)
Language : English
Service kind : Complete Main
Default : Yes
Forced : No

Text
ID : 3
Format : UTF-8
Codec ID : S_TEXT/UTF8
Codec ID/Info : UTF-8 Plain Text
Duration : 1 h 15 min
Bit rate : 85 b/s
Count of elements : 1604
Stream size : 47.2 KiB (0%)
Default : Yes
Forced : No














Files:

Lego DC Comics Super Heroes The Flash 2018 720p WEB-DL DD 5.1 x264 ESub
  • Lego DC Comics Super Heroes The Flash 2018 720p WEB-DL DD 5.1 x264 ESub.mkv (726.8 MB)

There are currently no comments. Feel free to leave one :)

Code:

  • udp://tracker.coppersurfer.tk:6969/announce
  • udp://tracker.leechers-paradise.org:6969/announce
  • udp://inferno.demonoid.pw:3391/announce
  • udp://tracker.tntvillage.scambioetico.org:2710/announce
  • udp://tracker.pirateparty.gr:6969/announce
  • udp://9.rarbg.com:2770/announce
  • udp://public.popcorn-tracker.org:6969/announce
  • udp://tracker.zer0day.to:1337/announce
  • http://bigfoot1942.sektori.org:6969/announce
  • udp://ipv4.tracker.harry.lu:80/announce
  • udp://shadowshq.yi.org:6969/announce
  • udp://tracker.vanitycore.co:6969/announce
  • udp://tracker.opentrackr.org:1337/announce
  • udp://explodie.org:6969/announce
  • udp://tracker.zer0day.to:1337/announce
  • udp://tracker.leechers-paradise.org:6969/announce
  • udp://coppersurfer.tk:6969/announce