Lethal Weapon 1987 1080p BluRay X265 HEVC 10bit AAC 5.1-LordVako

  • Category Movies
  • Type HEVC/x265
  • Language English
  • Total size 2.1 GB
  • Uploaded By uploadhero
  • Downloads 218
  • Last checked 5 hours ago
  • Date uploaded 1 week ago
  • Seeders 9
  • Leechers 5

Lethal Weapon

ActionAdventureComedyCrimeThriller

Veteran buttoned-down LAPD detective Roger Murtaugh is partnered with unhinged cop Martin Riggs, who -- distraught after his wife's death -- has a death wish and takes unnecessary risks with criminals at every turn. The odd couple embark on their first homicide investigation as partners, involving a young woman known to Murtaugh with ties to a drug and prostitution ring.

Infohash : 30D4F5ADF1C8EE9B3644144D4019CE619EA45D97

FYI: Magnet hash in case of DMCA takedown ( 30D4F5ADF1C8EE9B3644144D4019CE619EA45D97 )

Important:

You MUST use a HEVC compatible player in order to watch it. There are a lot out there but I recommend POTplayer.

Enjoy.


Quote:

Format : Matroska
Format version : Version 4 / Version 2
File size : 2.10 GiB
Duration : 1 h 49 min
Overall bit rate : 2 745 kb/s
Encoded date : UTC 2016-07-02 05:31:23
Writing application : mkvmerge v9.0.1 ('Obstacles') 64bit
Writing library : libebml v1.3.3 + libmatroska v1.4.4

Video
ID : 1
Format : HEVC
Format/Info : High Efficiency Video Coding
Format profile : Main [email protected]@Main
Codec ID : V_MPEGH/ISO/HEVC
Duration : 1 h 49 min
Bit rate : 2 020 kb/s
Width : 1 920 pixels
Height : 1 072 pixels
Display aspect ratio : 16:9
Frame rate mode : Constant
Frame rate : 23.976 (24000/1001) FPS
Color space : YUV
Chroma subsampling : 4:2:0
Bit depth : 10 bits
Bits/(Pixel*Frame) : 0.041
Stream size : 1.55 GiB (74%)
Writing library : x265 1.9+140-34a3d35c5f97:[Windows][GCC 5.3.0][64 bit] 10bit
Encoding settings : wpp / ctu=64 / min-cu-size=8 / max-tu-size=32 / tu-intra-depth=1 / tu-inter-depth=1 / me=1 / subme=2 / merange=57 / no-rect / no-amp / max-merge=2 / temporal-mvp / no-early-skip / rdpenalty=0 / no-tskip / no-tskip-fast / strong-intra-smoothing / no-lossless / no-cu-lossless / no-constrained-intra / no-fast-intra / open-gop / no-temporal-layers / interlace=0 / keyint=250 / min-keyint=23 / scenecut=40 / rc-lookahead=20 / lookahead-slices=6 / bframes=8 / bframe-bias=0 / b-adapt=2 / ref=3 / limit-refs=3 / no-limit-modes / weightp / no-weightb / aq-mode=3 / qg-size=32 / aq-strength=1.00 / cbqpoffs=0 / crqpoffs=0 / rd=3 / psy-rd=2.00 / rdoq-level=0 / psy-rdoq=0.00 / no-rd-refine / signhide / deblock=0:0 / sao / no-sao-non-deblock / b-pyramid / cutree / no-intra-refresh / rc=2 / pass / bitrate=2020 / qcomp=0.60 / qpmin=0 / qpmax=51 / qpstep=4 / cplxblur=20.0 / qblur=0.5 / ipratio=1.40 / pbratio=1.30
Default : Yes
Forced : No

Audio
ID : 2
Format : AAC
Format/Info : Advanced Audio Codec
Format profile : LC
Codec ID : A_AAC
Duration : 1 h 49 min
Bit rate : 629 kb/s
Channel(s) : 6 channels
Channel positions : Front: L C R, Side: L R, LFE
Sampling rate : 48.0 kHz
Frame rate : 46.875 FPS (1024 spf)
Compression mode : Lossy
Delay relative to video : 20 ms
Stream size : 493 MiB (23%)
Language : English
Default : No
Forced : No

Text #1
ID : 3
Format : VobSub
Muxing mode : zlib
Codec ID : S_VOBSUB
Codec ID/Info : Picture based subtitle format used on DVDs
Duration : 1 h 48 min
Bit rate : 4 108 b/s
Count of elements : 1052
Stream size : 3.19 MiB (0%)
Language : French
Default : No
Forced : No

Text #2
ID : 4
Format : VobSub
Muxing mode : zlib
Codec ID : S_VOBSUB
Codec ID/Info : Picture based subtitle format used on DVDs
Duration : 1 h 44 min
Bit rate : 5 139 b/s
Count of elements : 1216
Stream size : 3.85 MiB (0%)
Language : German
Default : No
Forced : No

Text #3
ID : 5
Format : VobSub
Muxing mode : zlib
Codec ID : S_VOBSUB
Codec ID/Info : Picture based subtitle format used on DVDs
Duration : 1 h 48 min
Bit rate : 4 196 b/s
Count of elements : 1128
Stream size : 3.26 MiB (0%)
Language : Greek
Default : No
Forced : No

Text #4
ID : 6
Format : VobSub
Muxing mode : zlib
Codec ID : S_VOBSUB
Codec ID/Info : Picture based subtitle format used on DVDs
Duration : 1 h 48 min
Bit rate : 3 893 b/s
Count of elements : 1129
Stream size : 3.03 MiB (0%)
Language : Hebrew
Default : No
Forced : No

Text #5
ID : 7
Format : VobSub
Muxing mode : zlib
Codec ID : S_VOBSUB
Codec ID/Info : Picture based subtitle format used on DVDs
Duration : 1 h 48 min
Bit rate : 5 592 b/s
Count of elements : 1294
Stream size : 4.35 MiB (0%)
Language : Italian
Default : No
Forced : No

Text #6
ID : 8
Format : VobSub
Muxing mode : zlib
Codec ID : S_VOBSUB
Codec ID/Info : Picture based subtitle format used on DVDs
Duration : 1 h 42 min
Bit rate : 4 165 b/s
Count of elements : 1180
Stream size : 3.04 MiB (0%)
Language : Japanese
Default : No
Forced : No

Text #7
ID : 9
Format : VobSub
Muxing mode : zlib
Codec ID : S_VOBSUB
Codec ID/Info : Picture based subtitle format used on DVDs
Duration : 1 h 48 min
Bit rate : 3 861 b/s
Count of elements : 1132
Stream size : 3.00 MiB (0%)
Language : Korean
Default : No
Forced : No

Text #8
ID : 10
Format : VobSub
Muxing mode : zlib
Codec ID : S_VOBSUB
Codec ID/Info : Picture based subtitle format used on DVDs
Duration : 1 h 48 min
Bit rate : 3 000 b/s
Count of elements : 610
Stream size : 2.33 MiB (0%)
Language : Norwegian Bokmal
Default : No
Forced : No

Text #9
ID : 11
Format : VobSub
Muxing mode : zlib
Codec ID : S_VOBSUB
Codec ID/Info : Picture based subtitle format used on DVDs
Duration : 1 h 48 min
Bit rate : 4 046 b/s
Count of elements : 1124
Stream size : 3.15 MiB (0%)
Language : Polish
Default : No
Forced : No

Text #10
ID : 12
Format : VobSub
Muxing mode : zlib
Codec ID : S_VOBSUB
Codec ID/Info : Picture based subtitle format used on DVDs
Duration : 1 h 48 min
Bit rate : 3 982 b/s
Count of elements : 1017
Stream size : 3.10 MiB (0%)
Language : Portuguese
Default : No
Forced : No

Text #11
ID : 13
Format : VobSub
Muxing mode : zlib
Codec ID : S_VOBSUB
Codec ID/Info : Picture based subtitle format used on DVDs
Duration : 1 h 48 min
Bit rate : 4 481 b/s
Count of elements : 1133
Stream size : 3.48 MiB (0%)
Language : Russian
Default : No
Forced : No

Text #12
ID : 14
Format : VobSub
Muxing mode : zlib
Codec ID : S_VOBSUB
Codec ID/Info : Picture based subtitle format used on DVDs
Duration : 1 h 48 min
Bit rate : 4 561 b/s
Count of elements : 1130
Stream size : 3.55 MiB (0%)
Language : Spanish
Default : No
Forced : No

Text #13
ID : 15
Format : VobSub
Muxing mode : zlib
Codec ID : S_VOBSUB
Codec ID/Info : Picture based subtitle format used on DVDs
Duration : 1 h 48 min
Bit rate : 3 049 b/s
Count of elements : 619
Stream size : 2.37 MiB (0%)
Language : Swedish
Default : No
Forced : No

Text #14
ID : 16
Format : VobSub
Muxing mode : zlib
Codec ID : S_VOBSUB
Codec ID/Info : Picture based subtitle format used on DVDs
Duration : 1 h 44 min
Bit rate : 4 658 b/s
Count of elements : 1132
Stream size : 3.49 MiB (0%)
Language : Thai
Default : No
Forced : No

Text #15
ID : 17
Format : VobSub
Muxing mode : zlib
Codec ID : S_VOBSUB
Codec ID/Info : Picture based subtitle format used on DVDs
Duration : 1 h 48 min
Bit rate : 4 330 b/s
Count of elements : 1130
Stream size : 3.37 MiB (0%)
Language : Turkish
Default : No
Forced : No

Text #16
ID : 18
Format : VobSub
Muxing mode : zlib
Codec ID : S_VOBSUB
Codec ID/Info : Picture based subtitle format used on DVDs
Duration : 1 h 44 min
Bit rate : 5 425 b/s
Count of elements : 1212
Stream size : 4.07 MiB (0%)
Language : English
Default : No
Forced : No

Text #17
ID : 19
Format : VobSub
Muxing mode : zlib
Codec ID : S_VOBSUB
Codec ID/Info : Picture based subtitle format used on DVDs
Duration : 1 h 48 min
Bit rate : 4 196 b/s
Count of elements : 938
Stream size : 3.26 MiB (0%)
Language : Bulgarian
Default : No
Forced : No

Text #18
ID : 20
Format : VobSub
Muxing mode : zlib
Codec ID : S_VOBSUB
Codec ID/Info : Picture based subtitle format used on DVDs
Duration : 1 h 49 min
Bit rate : 5 744 b/s
Count of elements : 1176
Stream size : 4.48 MiB (0%)
Language : Chinese
Default : No
Forced : No

Text #19
ID : 21
Format : VobSub
Muxing mode : zlib
Codec ID : S_VOBSUB
Codec ID/Info : Picture based subtitle format used on DVDs
Duration : 1 h 48 min
Bit rate : 4 138 b/s
Count of elements : 1135
Stream size : 3.22 MiB (0%)
Language : Czech
Default : No
Forced : No

Text #20
ID : 22
Format : VobSub
Muxing mode : zlib
Codec ID : S_VOBSUB
Codec ID/Info : Picture based subtitle format used on DVDs
Duration : 1 h 48 min
Bit rate : 3 596 b/s
Count of elements : 747
Stream size : 2.80 MiB (0%)
Language : Danish
Default : No
Forced : No

Text #21
ID : 23
Format : VobSub
Muxing mode : zlib
Codec ID : S_VOBSUB
Codec ID/Info : Picture based subtitle format used on DVDs
Duration : 1 h 44 min
Bit rate : 3 863 b/s
Count of elements : 899
Stream size : 2.90 MiB (0%)
Language : Dutch
Default : No
Forced : No

Text #22
ID : 24
Format : VobSub
Muxing mode : zlib
Codec ID : S_VOBSUB
Codec ID/Info : Picture based subtitle format used on DVDs
Duration : 1 h 48 min
Bit rate : 3 871 b/s
Count of elements : 851
Stream size : 3.01 MiB (0%)
Language : Finnish
Default : No
Forced : No

Menu
00:00:00.000 : en:Credits (Jingle Bell Rock)
00:04:26.099 : en:Two Morning Rituals
00:11:13.839 : en:Pine Needles and Pushers
00:14:53.601 : en:Moment of Truth
00:18:13.300 : en:"Rog, meet your new partner."
00:23:05.008 : en:A Drug Deal Ignited
00:25:58.390 : en:"You owe me, Roger. Remember?"
00:28:36.047 : en:Saving a Suicide
00:36:45.786 : en:Checking Out an Estate
00:42:59.577 : en:An Evening with the Murtaughs
00:54:12.707 : en:Target Practice
00:57:39.205 : en:Questioning Alfred
01:03:44.237 : en:Sudden Death from the Sky
01:08:10.294 : en:Incident on a Rainy Night
01:10:25.930 : en:Kidnapping ("We're gonna get bloddy on this one.")
01:15:17.513 : en:Rendezvous on the Flats
01:23:47.522 : en:A Shocking Intervention
01:29:30.365 : en:Christmas on Hollywood Blvd.
01:36:55.476 : en:Murtaugh's House
01:38:54.929 : en:A Shot at the Title
01:43:03.010 : en:Joshua's Last Stand
01:43:48.222 : en:"Merry Christmas, Victoria Lynn."
01:44:45.904 : en:Too Old for a Yuletide Houseful; End Credits ("I'll Be Home for Christmas, Lethal)

Files:

Lethal Weapon 1987 1080p BluRay x265 HEVC 10bit AAC 5.1-LordVako
  • Lethal Weapon 1987 1080p BluRay x265 HEVC 10bit AAC 5.1-LordVako.mkv (2.1 GB)

There are currently no comments. Feel free to leave one :)

Code:

  • udp://tracker.leechers-paradise.org:6969
  • udp://zer0day.ch:1337
  • udp://open.demonii.com:1337
  • udp://tracker.coppersurfer.tk:6969
  • udp://exodus.desync.com:6969
  • udp://tracker.openbittorrent.com:80
  • udp://tracker.publicbt.com:80
  • udp://tracker.istole.it:6969
  • udp://tracker.ccc.de:80