Blade.Runner.2049(2017).1080p.6CH.WEB-DL.x265-HETeam

  • Category Movies
  • Type HEVC/x265
  • Language English
  • Total size 2.0 GB
  • Uploaded By Crazy4TV
  • Downloads 14796
  • Last checked 3 weeks ago
  • Date uploaded 4 weeks ago
  • Seeders 2324
  • Leechers 910

Blade Runner 2049

MysteryScience FictionThriller

Thirty years after the events of the first film, a new blade runner, LAPD Officer K, unearths a long-buried secret that has the potential to plunge what's left of society into chaos. K's discovery leads him on a quest to find Rick Deckard, a former LAPD blade runner who has been missing for 30 years.

Infohash : 5F3A875505959B61825031E245DA2578446443CD





MediaInfo :

Video
ID : 2
Format : HEVC
Format/Info : High Efficiency Video Coding
Format profile : [email protected]@Main
Codec ID : V_MPEGH/ISO/HEVC
Duration : 2 h 43 min
Bit rate : 1 601 kb/s
Width : 1 920 pixels
Height : 796 pixels
Display aspect ratio : 2.40:1
Frame rate mode : Constant
Frame rate : 23.976 (24000/1001) FPS
Color space : YUV
Chroma subsampling : 4:2:0
Bit depth : 8 bits
Bits/(Pixel*Frame) : 0.044
Stream size : 1.83 GiB (89%)


Audio
ID : 1
Format : AAC
Format/Info : Advanced Audio Codec
Format profile : HE-AAC / LC
Codec ID : A_AAC
Duration : 2 h 43 min
Bit rate : 192 kb/s
Channel(s) : 6 channels


Text
ID : 3
Format : UTF-8
Codec ID : S_TEXT/UTF8
Codec ID/Info : UTF-8 Plain Text
Duration : 2 h 32 min
Bit rate : 23 b/s
Count of elements : 975
Stream size : 26.7 KiB (0%)





Screens :






Files:

Blade.Runner.2049(2017).1080p.6CH.WEB-DL.x265-HETeam
  • Crazy4TV.com - Blade Runner 2049.1080p.WEB-DL.x265-HETeam.mkv (2.0 GB)
  • Read Me.txt (0.1 KB)

Comments

Code:

  • udp://tracker.coppersurfer.tk:6969/announce