[REUP] Lethal Weapon 3 1992 (1080p Bluray x265 HEVC 10bit AAC 5.1...

  • Category Movies
  • Type HEVC/x265
  • Language English
  • Total size 2.9 GB
  • Uploaded By UTRplus
  • Downloads 303
  • Last checked 5 hours ago
  • Date uploaded 1 week ago
  • Seeders 16
  • Leechers 9

Infohash : EC94B8FD26AD12D7662720C01038DEC24567A5E6



Lethal Weapon 3 1992 in 1080p, encoded with x265 in HEVC and AAC 5.1 English, with subtitles!
Encoded using the time consuming 2 pass, 10 bit color at 2461 kbps, from a Blu-ray source, for the highest quality possible.



Media Information

Code:

General
Format : Matroska
Format version : Version 4 / Version 2
File size : 2.50 GiB
Duration : 1 h 57 min
Overall bit rate : 3 032 kb/s
Movie name : Lethal Weapon 3
Encoded date : UTC 2016-12-24 17:21:05
Writing application : mkvmerge v9.6.0 ('Slave To Your Mind') 64bit
Writing library : libebml v1.3.4 + libmatroska v1.4.5

Video
ID : 1
Format : HEVC
Format/Info : High Efficiency Video Coding
Format profile : Main [email protected]@Main
Codec ID : V_MPEGH/ISO/HEVC
Duration : 1 h 57 min
Bit rate : 2 462 kb/s
Width : 1 920 pixels
Height : 800 pixels
Display aspect ratio : 2.40:1
Frame rate mode : Constant
Frame rate : 23.976 (24000/1001) FPS
Color space : YUV
Chroma subsampling : 4:2:0
Bit depth : 10 bits
Bits/(Pixel*Frame) : 0.067
Stream size : 2.03 GiB (81%)
Writing library : x265 2.1+70-78e1e1354a25:[Windows][GCC 6.2.0][64 bit] 10bit
Encoding settings : cpuid=1173503 / frame-threads=3 / numa-pools=8 / wpp / no-pmode / no-pme / no-psnr / no-ssim / log-level=2 / input-csp=1 / input-res=1920x800 / interlace=0 / total-frames=169585 / level-idc=0 / high-tier=1 / uhd-bd=0 / ref=3 / no-allow-non-conformance / no-repeat-headers / annexb / no-aud / no-hrd / info / hash=0 / no-temporal-layers / open-gop / min-keyint=23 / keyint=250 / bframes=4 / b-adapt=2 / b-pyramid / bframe-bias=0 / rc-lookahead=20 / lookahead-slices=5 / scenecut=40 / no-intra-refresh / ctu=64 / min-cu-size=8 / no-rect / no-amp / max-tu-size=32 / tu-inter-depth=1 / tu-intra-depth=1 / limit-tu=0 / rdoq-level=0 / signhide / no-tskip / nr-intra=0 / nr-inter=0 / no-constrained-intra / strong-intra-smoothing / max-merge=2 / limit-refs=3 / no-limit-modes / me=1 / subme=2 / merange=57 / temporal-mvp / weightp / no-weightb / no-analyze-src-pics / deblock=0:0 / sao / no-sao-non-deblock / rd=3 / no-early-skip / rskip / no-fast-intra / no-tskip-fast / no-cu-lossless / no-b-intra / rdpenalty=0 / psy-rd=2.00 / psy-rdoq=0.00 / no-rd-refine / analysis-mode=0 / no-lossless / cbqpoffs=0 / crqpoffs=0 / rc=abr / bitrate=2461 / qcomp=0.60 / qpstep=4 / stats-write=0 / stats-read=2 / stats-file=E:\Lethal / Weapon / cplxblur=20.0 / qblur=0.5 / ipratio=1.40 / pbratio=1.30 / aq-mode=2 / aq-strength=1.00 / cutree / zone-count=0 / no-strict-cbr / qg-size=32 / no-rc-grain / qpmax=69 / qpmin=0 / sar=0 / overscan=0 / videoformat=5 / range=0 / colorprim=2 / transfer=2 / colormatrix=2 / chromaloc=0 / display-window=0 / max-cll=0,0 / min-luma=0 / max-luma=1023 / log2-max-poc-lsb=8 / vui-timing-info / vui-hrd-info / slices=1 / opt-qp-pps / opt-ref-list-length-pps / no-multi-pass-opt-rps / scenecut-bias=0.05
Default : Yes
Forced : No

Audio #1
ID : 2
Format : AAC
Format/Info : Advanced Audio Codec
Format profile : LC
Codec ID : A_AAC
Duration : 1 h 57 min
Bit rate : 353 kb/s
Channel(s) : 6 channels
Channel positions : Front: L C R, Side: L R, LFE
Sampling rate : 48.0 kHz
Frame rate : 46.875 FPS (1024 spf)
Compression mode : Lossy
Delay relative to video : 20 ms
Stream size : 299 MiB (12%)
Language : English
Default : Yes
Forced : No

Audio #2
ID : 3
Format : AAC
Format/Info : Advanced Audio Codec
Format profile : HE-AAC / LC
Codec ID : A_AAC
Duration : 1 h 57 min
Bit rate : 66.2 kb/s
Channel(s) : 2 channels
Channel positions : Front: L R
Sampling rate : 48.0 kHz / 24.0 kHz
Frame rate : 23.438 FPS (1024 spf)
Compression mode : Lossy
Delay relative to video : 40 ms
Stream size : 55.7 MiB (2%)
Title : Commentary
Language : English
Default : No
Forced : No

Text #1
ID : 4
Format : VobSub
Muxing mode : zlib
Codec ID : S_VOBSUB
Codec ID/Info : Picture based subtitle format used on DVDs
Duration : 1 h 56 min
Bit rate : 8 747 b/s
Count of elements : 1973
Stream size : 7.27 MiB (0%)
Language : English
Default : No
Forced : No

Text #2
ID : 5
Format : VobSub
Muxing mode : zlib
Codec ID : S_VOBSUB
Codec ID/Info : Picture based subtitle format used on DVDs
Duration : 1 h 56 min
Bit rate : 5 102 b/s
Count of elements : 1528
Stream size : 4.25 MiB (0%)
Language : French
Default : No
Forced : No

Text #3
ID : 6
Format : VobSub
Muxing mode : zlib
Codec ID : S_VOBSUB
Codec ID/Info : Picture based subtitle format used on DVDs
Duration : 1 h 56 min
Bit rate : 8 479 b/s
Count of elements : 2078
Stream size : 7.05 MiB (0%)
Language : German
Default : No
Forced : No

Text #4
ID : 7
Format : VobSub
Muxing mode : zlib
Codec ID : S_VOBSUB
Codec ID/Info : Picture based subtitle format used on DVDs
Duration : 1 h 56 min
Bit rate : 7 305 b/s
Count of elements : 1939
Stream size : 6.08 MiB (0%)
Language : Italian
Default : No
Forced : No

Text #5
ID : 8
Format : VobSub
Muxing mode : zlib
Codec ID : S_VOBSUB
Codec ID/Info : Picture based subtitle format used on DVDs
Duration : 1 h 56 min
Bit rate : 6 800 b/s
Count of elements : 1796
Stream size : 5.66 MiB (0%)
Language : Spanish
Default : No
Forced : No

Text #6
ID : 9
Format : VobSub
Muxing mode : zlib
Codec ID : S_VOBSUB
Codec ID/Info : Picture based subtitle format used on DVDs
Duration : 1 h 56 min
Bit rate : 7 292 b/s
Count of elements : 1752
Stream size : 6.07 MiB (0%)
Language : Bulgarian
Default : No
Forced : No

Text #7
ID : 10
Format : VobSub
Muxing mode : zlib
Codec ID : S_VOBSUB
Codec ID/Info : Picture based subtitle format used on DVDs
Duration : 1 h 57 min
Bit rate : 8 423 b/s
Count of elements : 1816
Stream size : 7.07 MiB (0%)
Language : Chinese
Default : No
Forced : No

Text #8
ID : 11
Format : VobSub
Muxing mode : zlib
Codec ID : S_VOBSUB
Codec ID/Info : Picture based subtitle format used on DVDs
Duration : 1 h 57 min
Bit rate : 9 794 b/s
Count of elements : 2059
Stream size : 8.24 MiB (0%)
Title : Commentary
Language : Chinese
Default : No
Forced : No

Text #9
ID : 12
Format : VobSub
Muxing mode : zlib
Codec ID : S_VOBSUB
Codec ID/Info : Picture based subtitle format used on DVDs
Duration : 1 h 56 min
Bit rate : 5 982 b/s
Count of elements : 1790
Stream size : 4.98 MiB (0%)
Language : Czech
Default : No
Forced : No

Text #10
ID : 13
Format : VobSub
Muxing mode : zlib
Codec ID : S_VOBSUB
Codec ID/Info : Picture based subtitle format used on DVDs
Duration : 1 h 56 min
Bit rate : 5 658 b/s
Count of elements : 1768
Stream size : 4.71 MiB (0%)
Language : Danish
Default : No
Forced : No

Text #11
ID : 14
Format : VobSub
Muxing mode : zlib
Codec ID : S_VOBSUB
Codec ID/Info : Picture based subtitle format used on DVDs
Duration : 1 h 56 min
Bit rate : 5 937 b/s
Count of elements : 1759
Stream size : 4.93 MiB (0%)
Language : Dutch
Default : No
Forced : No

Text #12
ID : 15
Format : VobSub
Muxing mode : zlib
Codec ID : S_VOBSUB
Codec ID/Info : Picture based subtitle format used on DVDs
Duration : 1 h 56 min
Bit rate : 5 177 b/s
Count of elements : 1673
Stream size : 4.31 MiB (0%)
Language : Finnish
Default : No
Forced : No

Text #13
ID : 16
Format : VobSub
Muxing mode : zlib
Codec ID : S_VOBSUB
Codec ID/Info : Picture based subtitle format used on DVDs
Duration : 1 h 56 min
Bit rate : 5 671 b/s
Count of elements : 1731
Stream size : 4.72 MiB (0%)
Language : Greek
Default : No
Forced : No

Text #14
ID : 17
Format : VobSub
Muxing mode : zlib
Codec ID : S_VOBSUB
Codec ID/Info : Picture based subtitle format used on DVDs
Duration : 1 h 56 min
Bit rate : 6 583 b/s
Count of elements : 1801
Stream size : 5.48 MiB (0%)
Language : Hebrew
Default : No
Forced : No

Text #15
ID : 18
Format : VobSub
Muxing mode : zlib
Codec ID : S_VOBSUB
Codec ID/Info : Picture based subtitle format used on DVDs
Duration : 1 h 56 min
Bit rate : 5 484 b/s
Count of elements : 1751
Stream size : 4.56 MiB (0%)
Language : Korean
Default : No
Forced : No

Text #16
ID : 19
Format : VobSub
Muxing mode : zlib
Codec ID : S_VOBSUB
Codec ID/Info : Picture based subtitle format used on DVDs
Duration : 1 h 56 min
Bit rate : 5 530 b/s
Count of elements : 1792
Stream size : 4.60 MiB (0%)
Language : Norwegian Bokmal
Default : No
Forced : No

Text #17
ID : 20
Format : VobSub
Muxing mode : zlib
Codec ID : S_VOBSUB
Codec ID/Info : Picture based subtitle format used on DVDs
Duration : 1 h 56 min
Bit rate : 6 624 b/s
Count of elements : 1791
Stream size : 5.50 MiB (0%)
Language : Polish
Default : No
Forced : No

Text #18
ID : 21
Format : VobSub
Muxing mode : zlib
Codec ID : S_VOBSUB
Codec ID/Info : Picture based subtitle format used on DVDs
Duration : 1 h 56 min
Bit rate : 7 366 b/s
Count of elements : 1751
Stream size : 6.13 MiB (0%)
Language : Portuguese
Default : No
Forced : No

Text #19
ID : 22
Format : VobSub
Muxing mode : zlib
Codec ID : S_VOBSUB
Codec ID/Info : Picture based subtitle format used on DVDs
Duration : 1 h 56 min
Bit rate : 7 057 b/s
Count of elements : 1753
Stream size : 5.87 MiB (0%)
Language : Russian
Default : No
Forced : No

Text #20
ID : 23
Format : VobSub
Muxing mode : zlib
Codec ID : S_VOBSUB
Codec ID/Info : Picture based subtitle format used on DVDs
Duration : 1 h 56 min
Bit rate : 4 821 b/s
Count of elements : 1632
Stream size : 4.01 MiB (0%)
Language : Swedish
Default : No
Forced : No

Text #21
ID : 24
Format : VobSub
Muxing mode : zlib
Codec ID : S_VOBSUB
Codec ID/Info : Picture based subtitle format used on DVDs
Duration : 1 h 56 min
Bit rate : 7 153 b/s
Count of elements : 1749
Stream size : 5.95 MiB (0%)
Language : Thai
Default : No
Forced : No

Text #22
ID : 25
Format : VobSub
Muxing mode : zlib
Codec ID : S_VOBSUB
Codec ID/Info : Picture based subtitle format used on DVDs
Duration : 1 h 56 min
Bit rate : 6 625 b/s
Count of elements : 1801
Stream size : 5.51 MiB (0%)
Language : Turkish
Default : No
Forced : No

Menu
00:00:00.000 : en:Chapter 01
00:01:39.182 : en:Chapter 02
00:07:48.634 : en:Chapter 03
00:10:04.770 : en:Chapter 04
00:15:11.577 : en:Chapter 05
00:20:08.749 : en:Chapter 06
00:22:06.408 : en:Chapter 07
00:24:36.975 : en:Chapter 08
00:29:16.337 : en:Chapter 09
00:37:00.509 : en:Chapter 10
00:43:33.902 : en:Chapter 11
00:49:31.218 : en:Chapter 12
00:53:44.262 : en:Chapter 13
00:56:17.582 : en:Chapter 14
00:58:06.441 : en:Chapter 15
01:00:42.305 : en:Chapter 16
01:05:49.028 : en:Chapter 17
01:11:41.422 : en:Chapter 18
01:14:59.745 : en:Chapter 19
01:18:15.691 : en:Chapter 20
01:22:29.277 : en:Chapter 21
01:24:37.197 : en:Chapter 22
01:27:21.736 : en:Chapter 23
01:29:59.268 : en:Chapter 24
01:34:44.053 : en:Chapter 25
01:37:15.287 : en:Chapter 26
01:42:34.439 : en:Chapter 27
01:46:24.586 : en:Chapter 28
01:48:26.208 : en:Chapter 29
01:51:43.822 : en:Chapter 30
01:57:04.767 : en:Chapter 31


Source Information

Code:

Complete name : Lethal_Weapon_3_t01.mkv
File size : 26.5 GiB
Duration : 1 h 57 min
Overall bit rate : 32.2 Mb/s


Files:

Lethal Weapon 3 1992 (1080p Bluray x265 HEVC 10bit AAC 5.1 Tigole) Featurettes
  • Deleted Scenes.mkv (9.7 MB)
  • Pulling the Trigger - Expanding the World of Lethal Weapon.mkv (363.8 MB)
  • Sting and Eric Clapton - It's Probably Me.mkv (12.1 MB)
  • Trailer 1.mkv (10.3 MB)
  • Trailer 2.mkv (4.1 MB)
  • Lethal Weapon 3 1992 (1080p x265 10bit Tigole).mkv (2.5 GB)

There are currently no comments. Feel free to leave one :)

Code:

  • udp://tracker.torrent.eu.org:451/announce
  • udp://tracker.opentrackr.org:1337/announce
  • udp://tracker.coppersurfer.tk:6969/announce