L'Emmerdeur (1973)[BDRip 1080p x264 by alE13 AC3/DTS][Napisy PL/E...

  • Category Movies
  • Type HD
  • Language English
  • Total size 7.8 GB
  • Uploaded By alE13
  • Downloads 10
  • Last checked 3 hours ago
  • Date uploaded 4 weeks ago
  • Seeders 6
  • Leechers 3

A Pain in the Ass

Comedy

Ralf Milan, a hitman, arrives in Montpellier to kill an important witness. He checks in a hotel without knowing that his neighbour has become neurotic after his wife left him.

Infohash : D40045AEEC4A7886B235D6E89B2880C7562935D1



http://www.imdb.com/title/tt0072934/
http://www.filmweb.pl/film/Natr%C4%99t-1973-190825

Plik zawiera Sample.



reżyseria: Édouard Molinaro
scenariusz: Francis Veber
gatunek: Komedia kryminalna
produkcja: Francja,Włochy
premiera: 20-09-1973
muzyka: Jacques Brel, François Rauber
zdjęcia: Raoul Coutard
czas: 1 h 24 min
opis:

Ralf Milan, a hitman, arrives in Montpellier to kill an important witness. He checks in a hotel
without knowing that his neighbour has become neurotic after his wife left him.

Ralf Milan (Lino Ventura) to zawodowy morderca na zlecenie, który przyjeżdża do Montpellier aby zabić
pewnego świadka szkodzącemu groźnemu przestępcy. Niestety dla niego, w hotelowym pokoju obok mieszka
François (Jacques Brel). Mężczyzna ten ma problemy małżeńskie i usiłuje popełnić samobójstwo. Zadanie
jaki musi wykonać Milan okaże się trudniejsze niż zabójca przypuszcza.






obsada:

Lino Ventura, Jacques Brel

, Caroline Cellier

dane techniczne:

L'Emmerdeur (1973)-alE13.mkv
Format : Matroska
Format version : Version 4 / Version 2
File size : 7.77 GiB
Duration : 1 h 24 min
Overall bit rate : 13.2 Mb/s
Movie name : L'Emmerdeur (1973)-alE13
Encoded date : UTC 2017-11-14 18:51:16
Writing application : mkvmerge v8.1.0 ('Psychedelic Postcard') 64bit
Writing library : libebml v1.3.1 + libmatroska v1.4.2
Cover : Yes
Attachments : Cover.jpg

Video
ID : 1
Format : AVC
Format/Info : Advanced Video Codec
Format profile : [email protected]
Format settings, CABAC : Yes
Format settings, ReFrames : 2 frames
Codec ID : V_MPEG4/ISO/AVC
Duration : 1 h 24 min
Bit rate : 11.2 Mb/s
Width : 1 792 pixels
Height : 1 080 pixels
Display aspect ratio : 5:3
Frame rate mode : Constant
Frame rate : 24.000 FPS
Color space : YUV
Chroma subsampling : 4:2:0
Bit depth : 8 bits
Scan type : Progressive
Bits/(Pixel*Frame) : 0.241
Stream size : 6.61 GiB (85%)
Title : L'Emmerdeur (1973)-alE13
Writing library : x264 core 142
Default : Yes
Forced : No
Color range : Limited
Color primaries : BT.709
Transfer characteristics : BT.709
Matrix coefficients : BT.709

Audio #1
ID : 2
Format : AC-3
Format/Info : Audio Coding 3
Mode extension : CM (complete main)
Format settings, Endianness : Big
Codec ID : A_AC3
Duration : 1 h 24 min
Bit rate mode : Constant
Bit rate : 448 kb/s
Channel(s) : 6 channels
Channel positions : Front: L C R, Side: L R, LFE
Sampling rate : 48.0 kHz
Frame rate : 31.250 FPS (1536 spf)
Compression mode : Lossy
Stream size : 271 MiB (3%)
Title : L'Emmerdeur (1973)-alE13_AC3
Language : French
Default : No
Forced : No

Audio #2
ID : 3
Format : DTS
Format/Info : Digital Theater Systems
Mode : 16
Format settings, Endianness : Big
Codec ID : A_DTS
Duration : 1 h 24 min
Bit rate mode : Constant
Bit rate : 1 509 kb/s
Channel(s) : 6 channels
Channel positions : Front: L C R, Side: L R, LFE
Sampling rate : 48.0 kHz
Frame rate : 93.750 FPS (512 spf)
Bit depth : 24 bits
Compression mode : Lossy
Stream size : 913 MiB (11%)
Title : L'Emmerdeur (1973)-alE13_DTS, 5.1, 1509Kbps
Language : French
Default : No
Forced : No

Text #1
ID : 4
Format : UTF-8
Codec ID : S_TEXT/UTF8
Codec ID/Info : UTF-8 Plain Text
Duration : 1 h 23 min
Bit rate : 36 b/s
Count of elements : 771
Stream size : 22.3 KiB (0%)
Title : L'Emmerdeur (1973)-alE13_SRT
Language : Polish
Default : Yes
Forced : No

Text #2
ID : 5
Format : UTF-8
Codec ID : S_TEXT/UTF8
Codec ID/Info : UTF-8 Plain Text
Duration : 1 h 23 min
Bit rate : 36 b/s
Count of elements : 772
Stream size : 22.0 KiB (0%)
Title : L'Emmerdeur (1973)-alE13_SRT
Language : English
Default : No
Forced : No

Menu
00:00:00.000 : en:00:00:00.000
00:04:31.458 : en:00:04:31.458
00:08:31.583 : en:00:08:31.583
00:15:25.250 : en:00:15:25.250
00:23:08.416 : en:00:23:08.417
00:30:52.125 : en:00:30:52.125
00:36:51.667 : en:00:36:51.667
00:44:07.625 : en:00:44:07.625
00:49:13.917 : en:00:49:13.917
00:56:41.792 : en:00:56:41.792
01:03:45.625 : en:01:03:45.625
01:08:36.457 : en:01:08:36.458
01:12:11.875 : en:01:12:11.875
01:15:54.875 : en:01:15:54.875
01:19:01.625 : en:01:19:01.625
01:23:27.375 : en:01:23:27.375

Files:

L'Emmerdeur (1973)-alE13 info
  • Cover.jpg (737.6 KB)
  • Nostalgie11.jpg (185.8 KB)
  • Torrent Downloaded From devil-torrents.txt (0.1 KB)
  • Torrent downloaded from demonoid.pw.txt (0.0 KB)
  • Torrent Downloaded From immortaltorrent.txt (0.0 KB)
  • Torrent Downloaded From ex-torrents-org.txt (0.0 KB)
  • Torrent Downloaded From super-torrent.txt (0.0 KB)
  • Torrent Downloaded From 1337x.to.txt (0.0 KB)
  • Torrent Downloaded From bitnova.info.txt (0.0 KB)
subtitles
  • L'Emmerdeur (1973)-alE13.rar (39.4 KB)
  • L'Emmerdeur (1973)-alE13.mkv (7.8 GB)
  • sample.mkv (40.6 MB)
  • txt.jpg (88.6 KB)
  • poster.jpg (64.8 KB)

There are currently no comments. Feel free to leave one :)

Code:

  • udp://p4p.arenabg.ch:1337/announce
  • udp://tracker.opentrackr.org:1337/announce
  • http://tracker.torrentyorg.pl/announce
  • udp://tracker.coppersurfer.tk:6969/announce
  • udp://tracker.leechers-paradise.org:6969/announce
  • udp://inferno.demonoid.pw:3391/announce
  • http://tracker.devil-torrents.pl/announce
  • udp://tracker.ilibr.org:80/announce